Aloha 2016 BRRip XviD AC4-EVO | Kaspersky Free 18.0.0.405 | Martha & Niki - Street Dance Weltmeisterinnen

18+ Better Start Running 2018 Movies HDRip x264 5.1 with Sample ☻...

  • Category Movies
  • Type HD
  • Language English
  • Total size 917.7 MB
  • Uploaded By nehalpuja
  • Downloads 312
  • Last checked 39 minutes ago
  • Date uploaded 1 day ago
  • Seeders 13
  • Leechers 10

Infohash : F42561AEB5931F2636D32140505183F966BB6C36

18+ Better Start Running 2018 Movies HDRip x264 5.1 with Sample ☻rDX☻
===============================================================================================

SCREEN SHOTS:



or

http://iphonehosting.eu/2018/10/premium/1.html

File size : 908 MiB
Duration : 1 h 32 min
Overall bit rate mode : Constant
Overall bit rate : 1 374 kb/s
Movie name : Better Start Running 2018 Movies HDRip x264 5.1 ☻rDX☻

Video
ID : 2
Format : AVC
Format/Info : Advanced Video Codec
Format profile : [email protected]
Format settings, CABAC : Yes
Format settings, ReFrames : 2 frames
Format settings, GOP : M=1, N=12
Codec ID : V_MPEG4/ISO/AVC
Duration : 1 h 32 min
Bit rate mode : Constant
Bit rate : 991 kb/s
Width : 720 pixels
Height : 400 pixels
Display aspect ratio : 16:9
Frame rate mode : Constant
Frame rate : 23.976 FPS
Color space : YUV
Chroma subsampling : 4:2:0
Bit depth : 8 bits
Scan type : Progressive
Bits/(Pixel*Frame) : 0.144
Stream size : 636 MiB (70%)
Title : ☻rDX☻
Default : Yes
Forced : No

Audio
ID : 1
Format : AC-3
Format/Info : Audio Coding 3
Mode extension : CM (complete main)
Format settings, Endianness : Big
Codec ID : A_AC3
Duration : 1 h 32 min
Bit rate mode : Constant
Bit rate : 384 kb/s
Channel(s) : 6 channels
Channel positions : Front: L C R, Side: L R, LFE
Sampling rate : 48.0 kHz
Frame rate : 31.250 FPS (1536 spf)
Bit depth : 16 bits
Compression mode : Lossy
Stream size : 254 MiB (28%)
Title : ☻rDX☻
Default : Yes
Forced : No

http://www.imdb.com/title/tt2762662

Files:

18+ Better Start Running 2018 Movies HDRip x264 5.1 with Sample ☻rDX☻
  • Sample ~ 18+ Better Start Running 2018 Movies HDRip x264 5.1 ☻rDX☻.mkv (9.9 MB)
  • 18+ Better Start Running 2018 Movies HDRip x264 5.1 ☻rDX☻.mkv (907.8 MB)

There are currently no comments. Feel free to leave one :)

Code:

  • udp://tracker.coppersurfer.tk:6969/announce
  • udp://tracker.leechers-paradise.org:6969/announce
  • udp://tracker.pirateparty.gr:6969/announce
  • udp://eddie4.nl:6969/announce
  • udp://tracker.zer0day.to:1337/announce
  • udp://9.rarbg.me:2710/announce
  • udp://9.rarbg.to:2710/announce
  • udp://public.popcorn-tracker.org:6969/announce
  • udp://p4p.arenabg.ch:1337/announce
  • udp://tracker.vanitycore.co:6969/announce
  • udp://ipv4.tracker.harry.lu:80/announce
  • udp://tracker.opentrackr.org:1337/announce
  • udp://p4p.arenabg.com:1337/announce
  • udp://shadowshq.yi.org:6969/announce